Login or Register

NFO File

For The Game (1997) Behind the Scenes 04 The Falls (BD AVC 1080i AC3) [38DFAF57]

General
Unique ID                                : 218055713243706532430537456204569437175 (0xA40C00B568A084CB9CDAF3E05428E3F7)
Complete name                            : The Game (1997) Behind the Scenes 04 The Falls (BD AVC 1080i AC3) [38DFAF57].mkv
Format                                   : Matroska
Format version                           : Version 4 / Version 2
File size                                : 1 008 MiB
Duration                                 : 7mn 43s
Overall bit rate mode                    : Variable
Overall bit rate                         : 18.2 Mbps
Encoded date                             : UTC 2016-04-19 10:11:44
Writing application                      : mkvmerge v9.0.1 ('Obstacles') 64bit
Writing library                          : libebml v1.3.3 + libmatroska v1.4.4
Cover                                    : Yes
Attachments                              : cover.jpg

Video
ID                                       : 1
Format                                   : AVC
Format/Info                              : Advanced Video Codec
Format profile                           : [email protected]
Format settings, CABAC                   : Yes
Format settings, ReFrames                : 4 frames
Format settings, GOP                     : M=3, N=24
Codec ID                                 : V_MPEG4/ISO/AVC
Duration                                 : 7mn 43s
Bit rate mode                            : Variable
Bit rate                                 : 17.8 Mbps
Maximum bit rate                         : 37.0 Mbps
Width                                    : 1 920 pixels
Height                                   : 1 080 pixels
Display aspect ratio                     : 16:9
Frame rate mode                          : Constant
Frame rate                               : 29.970 (30000/1001) fps
Color space                              : YUV
Chroma subsampling                       : 4:2:0
Bit depth                                : 8 bits
Scan type                                : MBAFF
Scan type, store method                  : Interleaved fields
Scan order                               : Top Field First
Bits/(Pixel*Frame)                       : 0.287
Stream size                              : 987 MiB (98%)
Language                                 : English
Default                                  : No
Forced                                   : No

Audio #1
ID                                       : 2
Format                                   : AC-3
Format/Info                              : Audio Coding 3
Mode extension                           : CM (complete main)
Format settings, Endianness              : Big
Codec ID                                 : A_AC3
Duration                                 : 7mn 43s
Bit rate mode                            : Constant
Bit rate                                 : 192 Kbps
Channel(s)                               : 2 channels
Channel positions                        : Front: L R
Sampling rate                            : 48.0 KHz
Frame rate                               : 31.250 fps (1536 spf)
Compression mode                         : Lossy
Stream size                              : 10.6 MiB (1%)
Language                                 : English
Default                                  : Yes
Forced                                   : No

Audio #2
ID                                       : 3
Format                                   : AC-3
Format/Info                              : Audio Coding 3
Mode extension                           : CM (complete main)
Format settings, Endianness              : Big
Codec ID                                 : A_AC3
Duration                                 : 7mn 43s
Bit rate mode                            : Constant
Bit rate                                 : 192 Kbps
Channel(s)                               : 1 channel
Channel positions                        : Front: C
Sampling rate                            : 48.0 KHz
Frame rate                               : 31.250 fps (1536 spf)
Compression mode                         : Lossy
Stream size                              : 10.6 MiB (1%)
Language                                 : English
Default                                  : No
Forced                                   : No