Login or Register

NFO File

For Moi.Moche.Et.Mechant.3.2017.FR.MD.XviD.boheme

13/08/2017

================================================================================
http://www.allocine.fr/film/fichefilm_gen_cfilm=226447.html
*                                                                              *

Date de sortie 5 juillet 2017 (1h 30min)
De Pierre Coffin, Kyle Balda plus
Avec Gad Elmaleh, Audrey Lamy, David Marsais plus
Genres Animation, Aventure, Comedie
Nationalite americain
*                                                                              *
A partir de 6 ans

 elle a divorce en faisant la promesse a son ex-mari de disparaitre totalement de
 sa vie en echange d’un des enfants. Tout en precisant, en substance, qu’elle n’
a pas eu son mot a dire et que Gru n’est somme toute qu’un second choix. Si Gru
, tout d’abord enthousiasme a l’idee d’avoir un frere, se rend avec Lucy et les 
filles dans son ile natale, Freedonia, pour rencontrer son jumeau, il dechante 
vite quand il decouvre que Dru est nettement superieur a lui, et ce en tout point.
 La ou Gru est un misanthrope aussi depourvu d’emploi que de cheveux, Dru arbore une masse capillaire impressionnante, un charisme naturel et une fortune colossale heritee de son pere et de son elevage de cochons. Gru est rapidement mine par un sentiment d’inferiorite, quand Dru lui revele sa faille: leur pere n’a jamais vu en lui l’etoffe d’un mechant, et de ce fait ne l’a pas forme dans cette direction qui est pourtant la marque de fabrique de la famille. Avec son aide, ils pourraient a eux deux perpetuer la tradition familiale.

Gru se sent alors investi d’un role de «grand frere» et lui livre les secrets de l
’utilisation des gadgets ultra-sophistiques de leur pere avec l’intention d’en 
profiter pour mettre hors d’etat de nuire l’insaisissable Balthazar Bratt. Mais 
cette alliance se voit serieusement menacee par un cas aggrave de rivalite 
gemellaire qui va vite les depasser et les handicaper face a un ennemi a l’
envergure encore inegalee. 

================================================================================
*                        Fichiers contenus dans le post                        *
================================================================================

--------------------------------------------------------------------------------
Moi.Moche.Et.Mechant.3.2017.FR.MD.XviD.boheme \
--------------------------------------------------------------------------------
Moi.Moche.Et.Mechant.3.2017.FR.MD.XviD.boheme.avi                       01:23:32

Duree................: 01:23:32
Taille des fichiers..: 705.27 Mo


--------------------------------------------------------------------------------
Moi.Moche.Et.Mechant.3.2017.FR.MD.XviD.boheme \Moi.Moche.Et.Mechant.3.2017.FR.MD
.XviD.boheme
--------------------------------------------------------------------------------
Moi.Moche.Et.Mechant.3.2017.FR.MD.XviD.boheme.nfo

Taille des fichiers..: 0 Octets

================================================================================
*Duree totale du post .........: 01:23:32                                      *
*Taille totale du post ........: 705.27 Mo                                     *
================================================================================

================================================================================
*              Moi.Moche.Et.Mechant.3.2017.FR.MD.XviD.boheme.avi               *
================================================================================
*Format                        : AVI                                           *
*Format/Info                   : Audio Video Interleave                        *
*File size                     : 705 MiB                                       *
*Duration                      : 1h 23mn                                       *
*Overall bit rate              : 1 180 Kbps                                    *
*Movie name                    : Moi.Moche.Et.Mechant.3.2017.720p.TRUEFRENCH..T*
*Writing application           : Lavf57.25.100                                 *
*=================================== Video ====================================*
*ID                            : 0                                             *
*Format                        : xvid                                          *
*Codec ID                      : xvid                                          *
*Duration                      : 1h 23mn                                       *
*Bit rate                      : 848 Kbps                                      *
*Width                         : 640 pixels                                    *
*Height                        : 360 pixels                                    *
*Display aspect ratio          : 16:9                                          *
*Frame rate                    : 25.000 fps                                    *
*Bits/(Pixel*Frame)            : 0.147                                         *
*Stream size                   : 507 MiB (72%)                                 *
*================================== Audio #1 ==================================*
*ID                            : 1                                             *
*Format                        : MPEG Audio                                    *
*Format version                : Version 1                                     *
*Format profile                : Layer 3                                       *
*Mode                          : Joint stereo                                  *
*Codec ID                      : 55                                            *
*Codec ID/Hint                 : MP3                                           *
*Duration                      : 1h 23mn                                       *
*Bit rate mode                 : Constant                                      *
*Bit rate                      : 320 Kbps                                      *
*Channel(s)                    : 2 channels                                    *
*Sampling rate                 : 44.1 KHz                                      *
*Compression mode              : Lossy                                         *
*Stream size                   : 191 MiB (27%)                                 *
*Alignment                     : Aligned on interleaves                        *
*Interleave, duration          : 26 ms (0.65 video frame)                      *
*Interleave, preload duration  : 26 ms                                         *
*Title                         : SKRiN vff                                     *
*Writing library               : [email protected]                                 *

================================================================================