Login or Register

NFO File

For Sea.Gull.1968

Sea.Gull.1968.TV_VHSrip.Xvid

Drama, Romance | November 1969 (UK)
http://www.imdb.com/title/tt0063569/

An aging actress named Irina Arkidana pays summer visits to her brother 
Pjotr Nikolayevich Sorin and her son Konstantin on a country estate. 
On one occasion, she brings Trigorin, a ... 

Director: Sidney Lumet
Writers: Anton Chekhov (play), Moura Budberg (adaptation)
Stars: James Mason, Vanessa Redgrave, Simone Signoret 

Notes: very poor Q video, audio is good.... see sample!
the only other version found is just as bad and has HC Esp subs

source: P2P
Format                                   : AVI
Format/Info                              : Audio Video Interleave
File size                                : 1.55 GiB
Duration                                 : 2h 14mn
Overall bit rate                         : 1 641 Kbps

Video
ID                                       : 0
Format                                   : MPEG-4 Visual
Format profile                           : [email protected]
Format settings, BVOP                    : No
Format settings, QPel                    : No
Format settings, GMC                     : No warppoints
Format settings, Matrix                  : Default (H.263)
Codec ID                                 : XVID
Codec ID/Hint                            : XviD
Duration                                 : 2h 14mn
Source duration                          : 2h 14mn
Bit rate                                 : 1 500 Kbps
Width                                    : 640 pixels
Height                                   : 480 pixels
Display aspect ratio                     : 4:3
Frame rate                               : 25.000 fps
Color space                              : YUV
Chroma subsampling                       : 4:2:0
Bit depth                                : 8 bits
Scan type                                : Progressive
Compression mode                         : Lossy
Bits/(Pixel*Frame)                       : 0.195
Stream size                              : 1.41 GiB (91%)
Writing library                          : XviD 1.1.2 (UTC 2006-11-01)

Audio
ID                                       : 1
Format                                   : MPEG Audio
Format version                           : Version 1
Format profile                           : Layer 3
Mode                                     : Joint stereo
Mode extension                           : MS Stereo
Codec ID                                 : 55
Codec ID/Hint                            : MP3
Duration                                 : 2h 14mn
Bit rate mode                            : Constant
Bit rate                                 : 128 Kbps
Channel(s)                               : 2 channels
Sampling rate                            : 48.0 KHz
Compression mode                         : Lossy
Delay relative to video                  : 24ms
Stream size                              : 124 MiB (8%)
Alignment                                : Split accross interleaves
Interleave, duration                     : 24 ms (0.60 video frame)