Login or Register

NFO File

For Killing.Ground.2016.1080p.WEB-DL.DD5.1.H264-FGT

Killing.Ground.2016.1080p.WEB-DL.DD5.1.H264-FGT

Genres:	Horror , Thriller
Language: English
IMDB: http://imdb.com/title/tt4728386/
Plot: A couples' camping trip turns into 
a frightening ordeal when they stumble 
across the scene of a horrific crime.

MediaInfo:

Video
ID                                       : 1
Format                                   : AVC
Format/Info                              : Advanced Video Codec
Format profile                           : High@L4
Format settings, CABAC                   : Yes
Format settings, ReFrames                : 5 frames
Codec ID                                 : V_MPEG4/ISO/AVC
Duration                                 : 1 h 28 min
Bit rate                                 : 4 395 kb/s
Width                                    : 1 912 pixels
Height                                   : 792 pixels
Display aspect ratio                     : 2.40:1
Frame rate mode                          : Constant
Frame rate                               : 24.000 FPS
Color space                              : YUV
Chroma subsampling                       : 4:2:0
Bit depth                                : 8 bits
Scan type                                : Progressive
Bits/(Pixel*Frame)                       : 0.121
Stream size                              : 2.72 GiB (90%)
Title                                    : Killing.Ground.2016.1080p.WEB-DL.DD5.1.H264-FGT
Language                                 : English
Default                                  : Yes
Forced                                   : No
Color range                              : Limited
Color primaries                          : BT.709
Transfer characteristics                 : BT.709
Matrix coefficients                      : BT.709

Audio
ID                                       : 2
Format                                   : AC-3
Format/Info                              : Audio Coding 3
Format settings, Endianness              : Big
Codec ID                                 : A_AC3
Duration                                 : 1 h 28 min
Bit rate mode                            : Constant
Bit rate                                 : 384 kb/s
Channel(s)                               : 6 channels
Channel positions                        : Front: L C R, Side: L R, LFE
Sampling rate                            : 48.0 kHz
Frame rate                               : 31.250 FPS (1536 spf)
Bit depth                                : 16 bits
Compression mode                         : Lossy
Delay relative to video                  : -42 ms
Stream size                              : 244 MiB (8%)
Title                                    : Killing.Ground.2016.1080p.WEB-DL.DD5.1.H264-FGT
Language                                 : English
Service kind                             : Complete Main
Default                                  : Yes
Forced                                   : No

Text
ID                                       : 3
Format                                   : UTF-8
Codec ID                                 : S_TEXT/UTF8
Codec ID/Info                            : UTF-8 Plain Text
Language                                 : English
Default                                  : Yes
Forced                                   : No

Menu
00:00:00.000                             : en:Opening Sequence
00:06:45.000                             : en:Camping Ground
00:12:19.000                             : en:The Neighbours
00:17:38.000                             : en:You\'re In Luck
00:23:19.000                             : en:Just A Bad Dream
00:28:19.000                             : en:This Isn\'t Right
00:34:44.000                             : enilemma
00:40:27.000                             : en:Where\'s Mom And Dad?
00:45:30.000                             : enrotect The Little One
00:50:48.000                             : en:Execution
00:58:02.000                             : en:The Search For Ollie
01:03:38.000                             : en:The Hunt
01:08:12.000                             : en:The Bait
01:13:19.000                             : en:The Rescue
01:19:39.000                             : en:The Escape
01:25:17.000                             : en:End Credits