Login or Register

NFO File

For Despicable.Me.3.2017.TS.x264.AC3-TiTAN

Despicable Me 3 2017 TS x264 AC3-TiTAN

Genre: Animation | Action | Adventure | Comedy | Family | Sci-Fi
IMDB: http://www.imdb.com/title/tt3469046/
Directed by: Kyle Balda, Pierre Coffin
Starring: Steve Carell, Kristen Wiig, Trey Parker
Language: English
Plot: After he is fired from the Anti-Villain League for failing to take down the latest bad guy to threaten humanity, Gru finds himself in the midst of a major identity crisis. But when a mysterious stranger shows up to inform Gru that he has a long-lost twin brother-a brother who desperately wishes to follow in his twin’s despicable footsteps-one former super-villain will rediscover just how good it feels to be bad.

NFO:
Release Name: Despicable.Me.3.2017.TS.x264.AC3-TiTAN
Size: 1.46 GiB
Video: MKV | 720×296 | 2 350 kbps
Audio: English | AC3 | 192 kbps
Runtime: 1 h 22 min
Subtitles: N/A

MEDIAINFO:


    General
    Unique ID                                : 229261287984280756382895090619149083663 (0xAC7A1E32BE1D708189CCAEB9CBE2640F)
    Complete name                            : D:\D.M 3 2017 TS x264 AC3 TiTAN.mkv
    Format                                   : Matroska
    Format version                           : Version 2
    File size                                : 1.46 GiB
    Duration                                 : 1 h 22 min
    Overall bit rate mode                    : Variable
    Overall bit rate                         : 2 544 kb/s
    Encoded date                             : UTC 2017-07-04 15:45:57
    Writing application                      : mkvmerge v10.0.0 ('To Drown In You') 64bit
    Writing library                          : libebml v1.3.4 + libmatroska v1.4.5
     
    Video
    ID                                       : 1
    Format                                   : AVC
    Format/Info                              : Advanced Video Codec
    Format profile                           : [email protected]
    Format settings, CABAC                   : Yes
    Format settings, ReFrames                : 3 frames
    Codec ID                                 : V_MPEG4/ISO/AVC
    Duration                                 : 1 h 22 min
    Bit rate mode                            : Variable
    Bit rate                                 : 2 350 kb/s
    Maximum bit rate                         : 40.0 Mb/s
    Width                                    : 720 pixels
    Height                                   : 296 pixels
    Display aspect ratio                     : 2.40:1
    Frame rate mode                          : Constant
    Frame rate                               : 29.970 (29970/1000) FPS
    Original frame rate                      : 29.970 (30000/1001) FPS
    Color space                              : YUV
    Chroma subsampling                       : 4:2:0
    Bit depth                                : 8 bits
    Scan type                                : Progressive
    Bits/(Pixel*Frame)                       : 0.368
    Stream size                              : 1.35 GiB (92%)
    Writing library                          : x264 core 148 r2744 b97ae06
    Encoding settings                        : cabac=1 / ref=4 / deblock=1:1:1 / analyse=0x3:0x133 / me=tesa / subme=11 / psy=1 / psy_rd=0.40:0.00 / mixed_ref=1 / me_range=24 / chroma_me=1 / trellis=2 / 8x8dct=1 / cqm=0 / deadzone=21,11 / fast_pskip=0 / chroma_qp_offset=-2 / threads=9 / lookahead_threads=1 / sliced_threads=0 / slices=4 / nr=0 / decimate=1 / interlaced=0 / bluray_compat=0 / constrained_intra=0 / bframes=3 / b_pyramid=1 / b_adapt=2 / b_bias=0 / direct=3 / weightb=1 / open_gop=0 / weightp=0 / keyint=29 / keyint_min=2 / scenecut=40 / intra_refresh=0 / rc_lookahead=29 / rc=2pass / mbtree=1 / bitrate=2350 / ratetol=1.0 / qcomp=0.60 / qpmin=10 / qpmax=51 / qpstep=4 / cplxblur=20.0 / qblur=0.5 / vbv_maxrate=40000 / vbv_bufsize=30000 / nal_hrd=vbr / filler=0 / ip_ratio=1.40 / aq=1:0.60
    Default                                  : Yes
    Forced                                   : No
    Color range                              : Full
    Color primaries                          : BT.709
    Transfer characteristics                 : BT.709
    Matrix coefficients                      : BT.709
     
    Audio
    ID                                       : 2
    Format                                   : AC-3
    Format/Info                              : Audio Coding 3
    Mode extension                           : CM (complete main)
    Format settings, Endianness              : Big
    Codec ID                                 : A_AC3
    Duration                                 : 1 h 22 min
    Bit rate mode                            : Constant
    Bit rate                                 : 192 kb/s
    Channel(s)                               : 2 channels
    Channel positions                        : Front: L R
    Sampling rate                            : 48.0 kHz
    Frame rate                               : 31.250 FPS (1536 spf)
    Bit depth                                : 16 bits
    Compression mode                         : Lossy
    Stream size                              : 113 MiB (8%)
    Default                                  : Yes
    Forced                                   : No