Login or Register

NFO File

For The.Girl.the.Gold.Watch.and.Everything.1980

The.Girl.the.Gold.Watch.and.Everything.1980.VHS.[POOR-Q]

Comedy, Sci-Fi | TV Movie 13 June 1980
http://www.imdb.com/title/tt0080792/

When Kirby inherits only one thing from his millionaire uncle: a pocket watch
that can stop time. Only, the bad guys know that he has it, and will do anything 
to take it from him. But they don't know that he's found the girl of his dreams...

Director: William Wiard
Writers: John D. MacDonald (novel), George Zateslo
Stars: Robert Hays, Pam Dawber, Zohra Lampert 

Note Very POOR Quality ! No better than the Youtube version

Format                                   : AVI
Format/Info                              : Audio Video Interleave
File size                                : 689 MiB
Duration                                 : 1h 30mn
Overall bit rate                         : 1 070 Kbps
Writing library                          : VirtualDub build 23648/release

Video
ID                                       : 0
Format                                   : MPEG-4 Visual
Format settings, BVOP                    : 1
Format settings, QPel                    : No
Format settings, GMC                     : No warppoints
Format settings, Matrix                  : Default (H.263)
Muxing mode                              : Packed bitstream
Codec ID                                 : DX50
Codec ID/Hint                            : DivX 5
Duration                                 : 1h 30mn
Bit rate                                 : 936 Kbps
Width                                    : 640 pixels
Height                                   : 432 pixels
Display aspect ratio                     : 3:2
Frame rate                               : 25.000 fps
Color space                              : YUV
Chroma subsampling                       : 4:2:0
Bit depth                                : 8 bits
Scan type                                : Progressive
Compression mode                         : Lossy
Bits/(Pixel*Frame)                       : 0.135
Stream size                              : 603 MiB (87%)
Writing library                          : DivX 6.2.5 (UTC 2006-07)

Audio
ID                                       : 1
Format                                   : MPEG Audio
Format version                           : Version 1
Format profile                           : Layer 3
Mode                                     : Joint stereo
Mode extension                           : MS Stereo
Codec ID                                 : 55
Codec ID/Hint                            : MP3
Duration                                 : 1h 30mn
Bit rate mode                            : Constant
Bit rate                                 : 128 Kbps
Channel(s)                               : 2 channels
Sampling rate                            : 44.1 KHz
Compression mode                         : Lossy
Stream size                              : 82.5 MiB (12%)
Alignment                                : Split accross interleaves
Interleave, duration                     : 200 ms (5.00 video frames)
Interleave, preload duration             : 500 ms
Writing library                          : LAME3.96.1