Login or Register

NFO File

For The.Gracefield.Incident.2017.1080p.WEB-DL.DD5.1.H264-FGT

The.Gracefield.Incident.2017.1080p.WEB-DL.DD5.1.H264-FGT

Genres:	Action , Horror , Mystery , Sci-Fi , Thriller
Language: English
IMDB: http://imdb.com/title/tt4464394/
Plot:
In Gracefield three couples are spending a long weekend 
in a luxurious cabin when suddenly an uninvited guest 
in the form of a meteorite comes crashing the
party...

MediaInfo

Video
ID                                       : 1
Format                                   : AVC
Format/Info                              : Advanced Video Codec
Format profile                           : [email protected]
Format settings, CABAC                   : Yes
Format settings, ReFrames                : 5 frames
Codec ID                                 : V_MPEG4/ISO/AVC
Duration                                 : 1 h 25 min
Bit rate                                 : 4 411 kb/s
Width                                    : 1 920 pixels
Height                                   : 816 pixels
Display aspect ratio                     : 2.35:1
Frame rate mode                          : Constant
Frame rate                               : 23.976 (24000/1001) FPS
Color space                              : YUV
Chroma subsampling                       : 4:2:0
Bit depth                                : 8 bits
Scan type                                : Progressive
Bits/(Pixel*Frame)                       : 0.117
Stream size                              : 2.62 GiB (90%)
Title                                    : The.Gracefield.Incident.2017.1080p.WEB-DL.DD5.1.H264-FGT
Language                                 : English
Default                                  : Yes
Forced                                   : No
Color range                              : Limited
Color primaries                          : BT.709
Transfer characteristics                 : BT.709
Matrix coefficients                      : BT.709

Audio
ID                                       : 2
Format                                   : AC-3
Format/Info                              : Audio Coding 3
Format settings, Endianness              : Big
Codec ID                                 : A_AC3
Duration                                 : 1 h 25 min
Bit rate mode                            : Constant
Bit rate                                 : 384 kb/s
Channel(s)                               : 6 channels
Channel positions                        : Front: L C R, Side: L R, LFE
Sampling rate                            : 48.0 kHz
Frame rate                               : 31.250 FPS (1536 spf)
Bit depth                                : 16 bits
Compression mode                         : Lossy
Delay relative to video                  : -42 ms
Stream size                              : 234 MiB (8%)
Title                                    : The.Gracefield.Incident.2017.1080p.WEB-DL.DD5.1.H264-FGT
Language                                 : English
Service kind                             : Complete Main
Default                                  : Yes
Forced                                   : No

Text
ID                                       : 3
Format                                   : UTF-8
Codec ID                                 : S_TEXT/UTF8
Codec ID/Info                            : UTF-8 Plain Text
Language                                 : English
Default                                  : Yes
Forced                                   : No

Menu
00:00:00.000                             : en:Opening Sequence
00:08:46.000                             : en:Lost Reception
00:14:54.000                             : enebris
00:20:33.000                             : en:Caught
00:26:13.000                             : en:What Was That?
00:32:57.000                             : en:A Bigfoot
00:40:07.000                             : en:Creature In The Cabin
00:47:24.000                             : en:In The Forest
00:56:26.000                             : en:The Balloons
01:04:25.000                             : en:Five Hours Before Sunset
01:10:46.000                             : en:The Farm
01:19:07.000                             : en:End Credits